Сегодня идет свободное скачивание без начисления Download

Куда ушла любовь / Where Love Has Gone (Эдвард Дмитрик) (Драма 1964) BDRip [H.264]

Ответить на тему
 
Автор
Сообщение

Omen ®

Стаж: 4 года 1 месяц

Сообщений: 194359

Торрент-статистика

Пост 09-Июл-2013 21:50

[Цитировать]

Куда ушла любовь / Where Love Has Gone -«From the blistering best-seller! From the team that brought you 'The Carpetbaggers'! The explosive story of the violent world where a mother and her teenage daughter compete for the same lover...WHERE LOVE HAS GONE goes where no motion picture has ever dared go before!»- Русское название: Куда ушла любовь
Оригинальное название: Where Love Has Gone
Год выпуска: 1964
Жанр: Драма
Страна: США
Производство: Embassy Pictures Corporation, Joseph E. Levine Productions
Описание фильма:
Архитектор Люк Миллер, получив известие о страшной трагедии, случившейся в доме его бывшей жены Вэлери и их дочери Даниэль, возвращается в город, где прошли годы его брака, закончившегося горьким разводом. Теперь его дочь подозревается в убийстве любовника собственной матери. Перед мысленным взором Люка разворачивается панорама его жизни, И начинается она знакомством с Вэлери Хейден, талантливым скульптором, выросшей в условиях абсолютного диктата своей властной матери…
По роману Харольда Роббинса (Harold Robbins).
Режиссер: Эдвард Дмитрик
Сценарий: Джон Майкл Хейс, Харольд Роббинс
Продюсер: Джозеф Э. Ливайн
Актеры: Сьюзен Хэйуорд, Бетт Дэвис, Майк Коннорс , Джоуи Хизертон, Джейн Грир, ДеФорест Келли, Джордж Макреди, Энн Сеймур, Уиллис Бучи, Уолтер Рид
Продолжительность: 01:54:30
Качество видео: BDRip
Перевод: Одноголосый закадровый, Ю.Сербин
Субтитры: Отсутствуют

Дата мировой премьеры: 2 ноября 1964
Видеокодек: MPEG-4 AVC/H.264
Битрейт видео: ~2200 Кбит/сек
Размер кадра: 1024x440
Аудиокодек: AC3 1.0
Битрейт аудио: 192 kbps

Награды:

Оскар, 1965 год
Номинации (1):
Лучшая песня — «Where Love Has Gone»
Золотой глобус, 1965 год
Номинации (1):
Лучшая песня — «Where Love Has Gone»

MediaInfo:

Общее
Уникальный идентификатор : 252598313737628235399735945983593259305 (0xBE08AA66EAF930769137E8696BAFA129)
Полное имя : H:\Downloads\Куда ушла любовь.mkv
Формат : Matroska
Размер файла : 1,91 Гбайт
Продолжительность : 1 ч. 54 м.
Общий поток : 2394 Кбит/сек
Дата кодирования : UTC 2013-06-30 04:20:36
Программа кодирования : mkvmerge v6.0.0 ('Coming Up For Air') built on Jan 20 2013 09:52:00
Библиотека кодирования : libebml v1.3.0 + libmatroska v1.4.0
Видео
Идентификатор : 1
Формат : AVC
Формат/Информация : Advanced Video Codec
Профиль формата : [url=mailto:[email protected]][email protected][/url]
Параметр CABAC формата : Да
Параметр ReFrames формата : 5 кадров
Параметры GOP формата : M=4, N=17
Идентификатор кодека : V_MPEG4/ISO/AVC
Продолжительность : 1 ч. 54 м.
Битрейт : 2200 Кбит/сек
Ширина : 1024 пикс.
Высота : 440 пикс.
Соотношение сторон : 2,35:1
Частота кадров : 23,976 кадр/сек
Цветовое пространство : YUV
Подвыборка цветности : 4:2:0
Битовая глубина : 8 бит
Тип развёртки : Прогрессивная
Бит/(Пиксели*Кадры) : 0.204
Размер потока : 1,72 Гбайт (90%)
Заголовок : Where Love Has Gone
Библиотека кодирования : x264 core 125 r2208 d9d2288
Настройки программы : cabac=1 / ref=5 / deblock=1:-1:-1 / analyse=0x3:0x113 / me=umh / subme=9 / psy=1 / psy_rd=1.00:0.10 / mixed_ref=1 / me_range=32 / chroma_me=1 / trellis=2 / 8x8dct=1 / cqm=0 / deadzone=21,11 / fast_pskip=0 / chroma_qp_offset=-3 / threads=6 / lookahead_threads=1 / sliced_threads=0 / nr=0 / decimate=1 / interlaced=0 / bluray_compat=0 / constrained_intra=0 / bframes=3 / b_pyramid=2 / b_adapt=2 / b_bias=0 / direct=3 / weightb=1 / open_gop=0 / weightp=2 / keyint=250 / keyint_min=25 / scenecut=40 / intra_refresh=0 / rc_lookahead=50 / rc=2pass / mbtree=1 / bitrate=2200 / ratetol=1.0 / qcomp=0.60 / qpmin=10 / qpmax=51 / qpstep=4 / cplxblur=20.0 / qblur=0.5 / ip_ratio=1.40 / aq=1:1.00
Язык : English
Аудио
Идентификатор : 2
Формат : AC-3
Формат/Информация : Audio Coding 3
Расширение режима : CM (complete main)
Идентификатор кодека : A_AC3
Продолжительность : 1 ч. 54 м.
Вид битрейта : Постоянный
Битрейт : 192 Кбит/сек
Каналы : 1 канал
Расположение каналов : Front: C
Частота : 48,0 КГц
Битовая глубина : 16 бит
Метод сжатия : С потерями
Размер потока : 157 Мбайт (8%)
Заголовок : Одноголосый закадровый, Ю.Сербин
Язык : Russian
Скриншоты:                    
Вне форума [Профиль] [ЛС]
Показать сообщения:    
Ответить на тему

Текущее время: Сегодня 10:58

Часовой пояс: GMT + 3



Вы не можете начинать темы
Вы не можете отвечать на сообщения
Вы не можете редактировать свои сообщения
Вы не можете удалять свои сообщения
Вы не можете голосовать в опросах
Вы не можете прикреплять файлы к сообщениям
Вы не можете скачивать файлы