Сегодня идет свободное скачивание без начисления Download

Звездный путь 5: Последний рубеж / Star Trek V: The Final Frontier (Уильям Шетнер) (фантастика, боевик, триллер, приключения 1989) BDRip [720p]

Ответить на тему
 
Автор
Сообщение

Omen ®

Стаж: 4 года 1 месяц

Сообщений: 194382

Торрент-статистика

Пост 11-Июл-2013 10:38

[Цитировать]

Звездный путь 5: Последний рубеж
Star Trek V: The Final Frontier от R.G. Shadoof
- Русское название: Звездный путь 5: Последний рубеж
Оригинальное название: Star Trek V: The Final Frontier
Год выпуска: 1989
Производство: США
Жанр: фантастика, боевик, триллер, приключения
Перевод: Многоголосый закадровый (SDI Media) + Одноголосый закадровый (Ю.Живов) + Оригинал
Субтитры: русские, английские-Релиз группы: R.G. Shadoof
Автор рипа : What You Gonna Do ?
-Режиссер: Уильям Шетнер
Актеры: Уильям Шетнер, Леонард Нимой, ДеФорест Келли, Джеймс Дуэн, Уолтер Кениг, Нишелль Николс, Джордж Такей, Дэвид Уорнер, Лоуренс Лакинбилл, Чарльз Купер- -Описание фильма: Кризис, разразившийся на песчаной планете Нимбус III (Nimbus III), расположенной в нейтральной зоне, казалось бы, был всего лишь еще одним актом заявления о себе местного бунтарства, желающем лишь привлечь внимание Федерации — но не на этот раз.
Теперь у повстанцев есть лидер, уроженец планеты Вулкан по имени Сайбок (Sybok), обладающий выдающимися даже по вулканеанским меркам парапсихологическими способностями — ему достаточно лишь краткого общения для того, чтобы человек либо другой инопланетянин испытывал к нему чувство безраздельного доверия.
Сайбок объявляет себя новым мессией и собирается отправиться на поиски — кого бы вы думали? — Бога! И некстати подвернувшийся ему под руку «Энтерпрайз» со своей командой будет вынужден выполнить данную миссию, ведь даже Спок, один из немногих не поддавшися внушению, не может поднять руку на своего… родного брата.
Их путь лежит в центр галактики, за Великий Барьер (The Great Barrier), на таинственную планету Ша Ка Ри (Sha Ka Ree), на которой согласно древним книгам их ожидает сам Великий Творец во всем своем величии. Но найдут ли они то, во что верят, что желают найти, или миф навсегда останется мифом? Все ответы — на Ша Ка Ри.
Самое удивительное путешествие «Энтерпрайза» начинается…
-Исходник: Звездный путь 5: Последний рубеж / Star Trek V: The Final Frontier (1989) 1080p BD-Remux
Продолжительность: 01:46:33
Качество видео: BDRip 720p
Видеокодек: x264
Битрейт видео: ~3892 kbps
Размер кадра: 1280x528
Аудио #1: Русский: 48 kHz, AC3, 2/0 (L,R) ch, ~192.00 kbps avg |Многоголосый закадровый, SDI Media|
Аудио #2: Русский: 48 kHz, AC3, 3/2 (L,C,R,l,r) + LFE ch, ~448.00 kbps avg |Одноголосый закадровый, Ю.Живов|
Аудио #3: Английский: 48 kHz, DTS 5.1, ~1509.00 kbps avg
-

Log

Код:
--[Information] [09.07.2013 23:35:03] Standard error stream
---[Information] [09.07.2013 23:35:08] raw [info]: 1280x528p 1:1 @ 24000/1001 fps (cfr)
---[Information] [09.07.2013 23:35:08] x264 [info]: using SAR=1/1
---[Information] [09.07.2013 23:35:08] x264 [info]: using cpu capabilities: MMX2 SSE2Fast SSSE3 SSE4.2
---[Information] [09.07.2013 23:35:08] x264 [info]: profile High, level 4.1
---[Information] [10.07.2013 16:41:05] x264 [info]: frame I:1005  Avg QP:14.68  size: 98085
---[Information] [10.07.2013 16:41:05] x264 [info]: frame P:30467 Avg QP:16.14  size: 45469
---[Information] [10.07.2013 16:41:05] x264 [info]: frame B:121809 Avg QP:19.27  size: 14140
---[Information] [10.07.2013 16:41:05] x264 [info]: consecutive B-frames:  1.3%  1.3%  5.5% 15.6% 18.8% 44.8%  6.9%  2.3%  1.7%  1.0%  0.5%  0.2%  0.2%
---[Information] [10.07.2013 16:41:05] x264 [info]: mb I  I16..4:  4.2% 82.8% 13.0%
---[Information] [10.07.2013 16:41:05] x264 [info]: mb P  I16..4:  0.5% 17.6%  0.8%  P16..4: 26.9% 37.4% 15.2%  0.0%  0.0%    skip: 1.5%
---[Information] [10.07.2013 16:41:05] x264 [info]: mb B  I16..4:  0.1%  1.7%  0.1%  B16..8: 35.0% 21.6%  3.8%  direct: 7.5%  skip:30.3%  L0:42.4% L1:43.8% BI:13.7%
---[Information] [10.07.2013 16:41:05] x264 [info]: 8x8 transform intra:91.6% inter:60.6%
---[Information] [10.07.2013 16:41:05] x264 [info]: coded y,uvDC,uvAC intra: 95.4% 96.4% 93.8% inter: 27.6% 32.5% 14.8%
---[Information] [10.07.2013 16:41:05] x264 [info]: i16 v,h,dc,p: 49% 19%  8% 25%
---[Information] [10.07.2013 16:41:05] x264 [info]: i8 v,h,dc,ddl,ddr,vr,hd,vl,hu:  7%  7% 11% 10% 14% 12% 14% 11% 14%
---[Information] [10.07.2013 16:41:05] x264 [info]: i4 v,h,dc,ddl,ddr,vr,hd,vl,hu:  7%  8%  5% 10% 16% 14% 15% 11% 15%
---[Information] [10.07.2013 16:41:05] x264 [info]: i8c dc,h,v,p: 57% 17% 12% 14%
---[Information] [10.07.2013 16:41:05] x264 [info]: Weighted P-Frames: Y:14.1% UV:10.1%
---[Information] [10.07.2013 16:41:05] x264 [info]: ref P L0: 42.3%  8.4% 18.8%  7.9%  6.9%  5.0%  4.7%  2.6%  2.8%  0.6%  0.0%
---[Information] [10.07.2013 16:41:05] x264 [info]: ref B L0: 77.2% 10.3%  4.7%  2.7%  2.0%  1.7%  0.9%  0.4%
---[Information] [10.07.2013 16:41:05] x264 [info]: ref B L1: 94.3%  5.7%
---[Information] [10.07.2013 16:41:05] x264 [info]: kb/s:4012.21

MediaInfo

Код:
Формат                                   : Matroska
Версия формата                           : Version 2
Размер файла                             : 4,59 Гбайт
Продолжительность                        : 1 ч. 46 м.
Общий поток                              : 6164 Кбит/сек
Название фильма                          : Звездный путь 5: Последний рубеж / Star Trek V: The Final Frontier (1989) от R.G. Shadoof
Дата кодирования                         : UTC 2013-07-10 12:53:37
Программа кодирования                    : mkvmerge v4.0.0 ('The Stars were mine') сборка от Jun  6 2010 16:18:42
Библиотека кодирования                   : libebml v1.0.0 + libmatroska v1.0.0
Видео
Идентификатор                            : 1
Формат                                   : AVC
Формат/Информация                        : Advanced Video Codec
Профиль формата                          : [url=mailto:[email protected]][email protected][/url]
Параметр CABAC формата                   : Да
Параметр ReFrames формата                : 9 кадров
Идентификатор кодека                     : V_MPEG4/ISO/AVC
Продолжительность                        : 1 ч. 46 м.
Битрейт                                  : 3892 Кбит/сек
Ширина                                   : 1280 пикселей
Высота                                   : 528 пикселей
Соотношение сторон                       : 2,40:1
Режим частоты кадров                     : Постоянный
Частота кадров                           : 23,976 кадра/сек
Цветовое пространство                    : YUV
Субдискретизация насыщенности            : 4:2:0
Битовая глубина                          : 8 бит
Тип развёртки                            : Прогрессивная
Бит/(Пиксели*Кадры)                      : 0.240
Размер потока                            : 2,90 Гбайт (63%)
Заголовок                                : Encode: WYGD | R.G. Shadoof | /*spam*/
Библиотека кодирования                   : x264 core 133 r2334 a3ac64b
Настройки программы                      : cabac=1 / ref=9 / deblock=1:-3:-2 / analyse=0x3:0x113 / me=umh / subme=11 / psy=1 / psy_rd=1.03:0.01 / mixed_ref=1 / me_range=48 / chroma_me=1 / trellis=2 / 8x8dct=1 / cqm=0 / deadzone=21,11 / fast_pskip=0 / chroma_qp_offset=-5 / threads=6 / lookahead_threads=1 / sliced_threads=0 / nr=0 / decimate=1 / interlaced=0 / bluray_compat=0 / constrained_intra=0 / bframes=12 / b_pyramid=2 / b_adapt=2 / b_bias=0 / direct=1 / weightb=1 / open_gop=0 / weightp=2 / keyint=240 / keyint_min=23 / scenecut=40 / intra_refresh=0 / rc_lookahead=60 / rc=crf / mbtree=0 / crf=17.2 / qcomp=0.60 / qpmin=10 / qpmax=69 / qpstep=4 / vbv_maxrate=62500 / vbv_bufsize=50000 / crf_max=0.0 / nal_hrd=none / ip_ratio=1.40 / pb_ratio=1.30 / aq=1:0.85
Язык                                     : English
Default                                  : Нет
Forced                                   : Нет
Аудио #1
Идентификатор                            : 2
Формат                                   : AC-3
Формат/Информация                        : Audio Coding 3
Профиль формата                          : Dolby Digital
Расширение режима                        : CM (complete main)
Параметр Endianness формата              : Big
Идентификатор кодека                     : A_AC3
Продолжительность                        : 1 ч. 46 м.
Вид битрейта                             : Постоянный
Битрейт                                  : 192 Кбит/сек
Каналы                                   : 2 канала
Расположение каналов                     : Front: L R
Частота                                  : 48,0 КГц
Битовая глубина                          : 16 бит
Метод сжатия                             : С потерями
Размер потока                            : 146 Мбайт (3%)
Заголовок                                : Многоголосый закадровый, SDI Media
Язык                                     : Russian
Default                                  : Да
Forced                                   : Нет
Аудио #2
Идентификатор                            : 3
Формат                                   : AC-3
Формат/Информация                        : Audio Coding 3
Расширение режима                        : CM (complete main)
Параметр Endianness формата              : Big
Идентификатор кодека                     : A_AC3
Продолжительность                        : 1 ч. 46 м.
Вид битрейта                             : Постоянный
Битрейт                                  : 448 Кбит/сек
Каналы                                   : 6 каналов
Расположение каналов                     : Front: L C R, Side: L R, LFE
Частота                                  : 48,0 КГц
Битовая глубина                          : 16 бит
Метод сжатия                             : С потерями
Размер потока                            : 341 Мбайт (7%)
Заголовок                                : Одноголосый закадровый, Ю.Живов
Язык                                     : Russian
Default                                  : Нет
Forced                                   : Нет
Аудио #3
Идентификатор                            : 4
Формат                                   : DTS
Формат/Информация                        : Digital Theater Systems
Режим                                    : 16
Параметр Endianness формата              : Big
Идентификатор кодека                     : A_DTS
Продолжительность                        : 1 ч. 46 м.
Вид битрейта                             : Постоянный
Битрейт                                  : 1509 Кбит/сек
Каналы                                   : 6 каналов
Расположение каналов                     : Front: L C R, Side: L R, LFE
Частота                                  : 48,0 КГц
Битовая глубина                          : 24 бит
Метод сжатия                             : С потерями
Размер потока                            : 1,12 Гбайт (24%)
Заголовок                                : Оригинал
Язык                                     : English
Default                                  : Нет
Forced                                   : Нет
Текст #1
Идентификатор                            : 5
Формат                                   : UTF-8
Идентификатор кодека                     : S_TEXT/UTF8
Идентификатор кодека/Информация          : UTF-8 Plain Text
Заголовок                                : Субтитры (Русские)
Язык                                     : Russian
Default                                  : Нет
Forced                                   : Нет
Текст #2
Идентификатор                            : 6
Формат                                   : UTF-8
Идентификатор кодека                     : S_TEXT/UTF8
Идентификатор кодека/Информация          : UTF-8 Plain Text
Заголовок                                : Субтитры (Оригинал)
Язык                                     : English
Default                                  : Нет
Forced                                   : Нет
-        
     
- --
Вне форума [Профиль] [ЛС]
Похожие темы
Форум Тема Автор Торрент Отв. Посл. сообщение
./templates/default/images/folder_dl.gif Мультфильмы в формате 3D Звёздные собаки: Белка и Стрелка в 3Д / 3D (Святослав Ушаков, Инна Евланникова) [2010, Мультфильм, Приключения, Комедия, BDrip-AVC] Half OverUnder / Вертикальная анаморфная стереопара zhuk.m
1 | 0

0 | 2267

23

2012-01-22 16:51
zhuk.m Последнее
./templates/default/images/folder_dl.gif Фантастика, фэнтези, ужасы, мистика Книжная серия | Звёзды мировой фантастики [18 книг.] (2014-2015) [FB2] (Обновляемая) O.S.A.
1 | 0

3 | 1448

5

2015-04-12 20:56
Геннадич Последнее
./templates/default/images/folder_dl.gif Для самых маленьких Серия обучающих игр Лунтик [3+] (P) (2006-2011) (1С - с 1-12 игры) (ALAWAR - 13-14 игры -Лунтик: Пропавшие краски и Лунтик: В поисках звезды) (RUS) [L] Aikivas
1 | 0

2 | 6651

28

2014-10-10 11:48
Aikivas Последнее
./templates/default/images/folder_dl.gif Книги для IPhone, IPod, Apple Форстер Э, Кинг С, Шекли Р, Вагнер К, Матесон Р, Пол Ф, Рыбаков В, Сильверберг Р, Рейнольдс А, Лукьяненко С, Эллисон Х, Браун Ф, Лавкрафт Г, и др - Созвездие Льва 2: Всадники Апокалипсиса [Булдаков Олег, 2016, Фантастика, 192Kbps], M4B VHS
1 | 0

0 | 220

1

2016-07-26 17:32
VHS Последнее
Показать сообщения:    
Ответить на тему

Текущее время: Сегодня 00:21

Часовой пояс: GMT + 3



Вы не можете начинать темы
Вы не можете отвечать на сообщения
Вы не можете редактировать свои сообщения
Вы не можете удалять свои сообщения
Вы не можете голосовать в опросах
Вы не можете прикреплять файлы к сообщениям
Вы не можете скачивать файлы