Today is a free download without charge Download

Rockets - Atomic (1982) [FLAC 2.0 24/192|image (Vinyl-Rip)]

Reply to topic
 
Author
Message

UndegraundMen ®

Longevity: 8 years 7 months

Posts: 25145

Торрент-статистика

Post 11-Jul-2013 14:04

[Quote]

Rockets - Atomic (1982)- Год: 1982
Жанр: Space Rock, New Wave
Продолжительность: 00:38:44
Лейбл: Rockland Records (RKL 20323)
Страна: Italy
Сканы: Full
Автор оцифровки: EvgenKK
Кодек: FLAC 2.0 24/192
Тип рипа: image+.cue
Трек лист:
A1. Atomic [4:06]
A2. Some Other Place, Some Other Time [4:52]
A3. Star Vision [5:51]
A4. Run To The Stars [4:41]
B1. Future Game [4:55]
B2. Light Speed Junky [3:32]
B3. The Martian Way [5:18]
B4. Radio Station [5:28]
-

Медиа Инфо

Код:
General
Complete name                            : F:\...\Rockets (Vinyl 24-192)\Rockets - 1982 - Atomic\Atomic.flac
Format                                   : FLAC
Format/Info                              : Free Lossless Audio Codec
File size                                : 1.51 GiB
Duration                                 : 38mn 44s
Overall bit rate mode                    : Variable
Overall bit rate                         : 5 576 Kbps
Audio
Format                                   : FLAC
Format/Info                              : Free Lossless Audio Codec
Duration                                 : 38mn 44s
Bit rate mode                            : Variable
Bit rate                                 : 5 576 Kbps
Channel(s)                               : 2 channels
Sampling rate                            : 192 KHz
Bit depth                                : 24 bits
Stream size                              : 1.51 GiB (100%)
Writing library                          : libFLAC 1.2.1 (UTC 2007-09-17)

Dynamic Range Meter

Код:
foobar2000 1.2.6 / Dynamic Range Meter 1.1.1
log date: 2013-07-11 10:41:35
--------------------------------------------------------------------------------
Analyzed: Rockets / Atomic
--------------------------------------------------------------------------------
DR         Peak         RMS     Duration Track
--------------------------------------------------------------------------------
DR13       0.00 dB   -14.87 dB      4:06 01-Atomic
DR12      -0.05 dB   -15.41 dB      4:52 02-Some Other Place, Some Other Time
DR14      -1.93 dB   -17.80 dB      5:51 03-Star Vision
DR16       0.00 dB   -18.65 dB      4:41 04-Run To The Stars
DR15       0.00 dB   -17.14 dB      4:55 05-Future Game
DR15      -0.23 dB   -16.93 dB      3:32 06-Light Speed Junky
DR13      -1.39 dB   -17.51 dB      5:18 07-The Martian Way
DR15       0.00 dB   -17.11 dB      5:28 08-Radio Station
--------------------------------------------------------------------------------
Number of tracks:  8
Official DR value: DR14
Samplerate:        192000 Hz
Channels:          2
Bits per sample:   24
Bitrate:           5576 kbps
Codec:             FLAC
================================================================================

Спектр, АЧХ, Уровень записи

 

Тех. информация

Класс состояния винила: Ex
Проигрыватель: AKAI AP-Q41
Картридж: Sumico Blue Point№2
Фонокорректор: Musucal Fidelity X-LP
АЦП: Creative EMU-0404 USB
Ноутбук с трансформаторным линейностабилизированным БП
Программа: Adobe Audition 3.0
Обработка: Подрезаны "хвосты", убраны вручную щелчки в Аудишене , сжатие Foobar codec FLAC 1.2.1
Формат записи: 32/192

Пятаки

   
-Время раздачи: Круглосуточно (до первых сидов, далее по возможности)
Other forum [Profile] [PM]
Display posts from previous:    
Reply to topic

The time now is: Today 07:14

All times are GMT + 3 Hours



You cannot post new topics in this forum
You cannot reply to topics in this forum
You cannot edit your posts in this forum
You cannot delete your posts in this forum
You cannot vote in polls in this forum
You cannot attach files in this forum
You cannot download files in this forum