Сегодня идет свободное скачивание без начисления Download

Суини Тодд / История Суини Тодда / The Tale of Sweeney Todd (Джон Шлезингер) (Ужасы, Триллер, Драма 1997) DVDRip

Ответить на тему
 
Автор
Сообщение

Omen ®

Стаж: 4 года 1 месяц

Сообщений: 194390

Торрент-статистика

Пост 11-Июл-2013 15:00

[Цитировать]

Суини Тодд / История Суини Тодда
The Tale of Sweeney Todd
- Год выпуска: 1997
Жанр: Ужасы, Триллер, Драма
Описание фильма:
Лондон. XVIII век. Бен Карлайл приезжает из Америки в Лондон, чтобы «вытрясти» из ювелира Манхейма долг в виде алмазов на сумму в 50 тысяч долларов, которые он задолжал своим американским партнерам. В ходе поисков Бен выясняет, что ювелира кто-то убил, а ключ от сейфа с камушками оставил себе. Постепенно расследование приводит его к местному парикмахеру, который последним видел живого ювелира. В конце концов, выясняется, что парикмахер-сумасшедший маньяк Суини Тодд, который убивает людей, а мясо поставляет своей сообщнице-любовнице, владеющая постоялым двором и таверной и торгующей очень популярными в городке пирогами и булочками с мясом. Естественно, мясцо-то человеческое…
Режиссер: Джон Шлезингер
Актеры: Бен Кингсли, Кэмпбелл Скотт, Джоанна Ламли, Селина Бояк, Дэвид Уилмот, Шон Флэнеган, Кэтрин Шлезингер, Джон Кэвэна, Джо Савино, Ниалл Багги, Питер Джефри, Питер Вудторп, Боско Хоган, Бёрди Суини, Дес Брайден, Герард Уолш, Дэвид Хип, Сэнди Кеннеди, Тоби Брэдфорд, Фрэнки МакКафферти, Саймон Малхолланд, Джон Олохэн, Ронан Уилмот, Джо Кинэн, Джерри О’Брайэн, Крис Лоулор, Люк Хейден, Джонатан Уайт, Дон Вичерли, Винсент Уолш
Продолжительность: 01:28:19
Качество видео: DVDRip
Перевод: Авторский одноголосый, закадровый (А.Гаврилов)

_____________________________
Видеокодек: DivX 5
Битрейт видео: ~2049 kbps
Размер кадра: 720x544
Аудио: AC3, 2 ch, 192 kbps
-

MI

Общее
Полное имя : The.Tale.of.Sweeney.Todd_1997.DVDRip.avi
Формат : AVI
Формат/Информация : Audio Video Interleave
Размер файла : 1,39 Гбайт
Продолжительность : 1 ч. 28 м.
Общий поток : 2250 Кбит/сек
Программа кодирования : VirtualDubModRus 1.5.10.2 (build 2542/release)
Библиотека кодирования : VirtualDubMod build 2542/release
Видео
Идентификатор : 0
Формат : MPEG-4 Visual
Параметр BVOP формата : 1
Параметр QPel формата : Нет
Параметр GMC формата : Без точки перехода
Параметр матрицы формата : Default (H.263)
Режим смешивания : Сжатый битовый поток
Идентификатор кодека : DX50
Идентификатор кодека/Подсказка : DivX 5
Продолжительность : 1 ч. 28 м.
Битрейт : 2049 Кбит/сек
Ширина : 720 пикс.
Высота : 544 пикс.
Соотношение сторон : 4:3
Частота кадров : 25,000 кадр/сек
Цветовое пространство : YUV
Подвыборка цветности : 4:2:0
Битовая глубина : 8 бит
Тип развёртки : Прогрессивная
Метод сжатия : С потерями
Бит/(Пиксели*Кадры) : 0.209
Размер потока : 1,26 Гбайт (91%)
Библиотека кодирования : DivX 3013
Аудио
Идентификатор : 1
Формат : AC-3
Формат/Информация : Audio Coding 3
Расширение режима : CM (complete main)
Идентификатор кодека : 2000
Продолжительность : 1 ч. 28 м.
Вид битрейта : Постоянный
Битрейт : 192 Кбит/сек
Канал(ы) : 2 канала(ов)
Расположение каналов : Front: L R
Частота : 48,0 КГц
Битовая глубина : 16 бит
Метод сжатия : С потерями
Размер потока : 121 Мбайт (9%)
Выравнивание : Разделение по промежуткам
Продолжительность промежутка : 40 мс. (1,00 видеокадр)
Время предзагрузки промежутка : 500 ms
Скриншоты:
             
Вне форума [Профиль] [ЛС]
Показать сообщения:    
Ответить на тему

Текущее время: Сегодня 17:23

Часовой пояс: GMT + 3



Вы не можете начинать темы
Вы не можете отвечать на сообщения
Вы не можете редактировать свои сообщения
Вы не можете удалять свои сообщения
Вы не можете голосовать в опросах
Вы не можете прикреплять файлы к сообщениям
Вы не можете скачивать файлы