Сегодня идет свободное скачивание без начисления Download

Один неверный ход / Одно неверное движение / One False Move (Карл Франклин) (Триллер, Драма, Криминал 1992) WEB-DLRip

Ответить на тему
 
Автор
Сообщение

Omen ®

Стаж: 4 года 1 месяц

Сообщений: 194382

Торрент-статистика

Пост 11-Июл-2013 21:13

[Цитировать]

Один неверный ход / Одно неверное движение / One False Move (1992) WEB-DLRip- Год выпуска: 1992
Жанр: Триллер, Драма, Криминал
Описание фильма:
Лайза Уокер, приехавшая в Лос-Анжделес из Арканзаса, нашла себе не лучшую компанию. Ее приятель Рэй Мэлколм вместе с напарником совершает жестокое убийство, вырезав в одном из домов целую семью. Прихватив награбленное, троица направляется в Хьюстон в надежде реализовать товар. По дороге они решают завернуть в Арканзас. Там на след преступников выходит полицейский Дэйл Диксон по прозвищу «Ураган»…
Режиссер: Карл Франклин
Актеры: Билл Пэкстон, Синда Уильямс, Билли Боб Торнтон, Майкл Бич, Джим Метцлер, Эрл Биллингс, Натали Кэнердей, Роберт Гиннавен, Роджер Энтони Белл, Кевин Хантер
Продолжительность: 01:45:35
Качество видео: WEB-DLRip
Перевод: Профессиональный (многоголосый закадровый)

____________________________
Видеокодек: Xvid
Битрейт видео: ~1779 kbps
Размер кадра: 688x384
Аудио: AC3, 2 ch, 192.00 kbps
-

MI

Общее
Полное имя : Odin.nevernyj.hod.1992.WEBDLRip.avi
Формат : AVI
Формат/Информация : Audio Video Interleave
Размер файла : 1,46 Гбайт
Продолжительность : 1 ч. 45 м.
Общий поток : 1980 Кбит/сек
Программа кодирования : VirtualDubMod 1.5.10.3 | www.virtualdub-fr.org || (build 2550/release)
Библиотека кодирования : VirtualDubMod build 2550/release
Видео
Идентификатор : 0
Формат : MPEG-4 Visual
Профиль формата : Advanced [email protected]
Параметр BVOP формата : 2
Параметр QPel формата : Нет
Параметр GMC формата : Без точки перехода
Параметр матрицы формата : Выборочная
Идентификатор кодека : XVID
Идентификатор кодека/Подсказка : XviD
Продолжительность : 1 ч. 45 м.
Битрейт : 1779 Кбит/сек
Ширина : 688 пикс.
Высота : 384 пикс.
Соотношение сторон : 16:9
Частота кадров : 23,976 кадр/сек
Цветовое пространство : YUV
Подвыборка цветности : 4:2:0
Битовая глубина : 8 бит
Тип развёртки : Прогрессивная
Метод сжатия : С потерями
Бит/(Пиксели*Кадры) : 0.281
Размер потока : 1,31 Гбайт (90%)
Библиотека кодирования : XviD 73
Аудио
Идентификатор : 1
Формат : AC-3
Формат/Информация : Audio Coding 3
Расширение режима : CM (complete main)
Идентификатор кодека : 2000
Продолжительность : 1 ч. 45 м.
Вид битрейта : Постоянный
Битрейт : 192 Кбит/сек
Канал(ы) : 2 канала(ов)
Расположение каналов : Front: L R
Частота : 48,0 КГц
Битовая глубина : 16 бит
Метод сжатия : С потерями
Размер потока : 145 Мбайт (10%)
Выравнивание : Разделение по промежуткам
Продолжительность промежутка : 42 мс. (1,00 видеокадр)
Время предзагрузки промежутка : 500 ms
Скриншоты:
             
Вне форума [Профиль] [ЛС]
Показать сообщения:    
Ответить на тему

Текущее время: Сегодня 22:21

Часовой пояс: GMT + 3



Вы не можете начинать темы
Вы не можете отвечать на сообщения
Вы не можете редактировать свои сообщения
Вы не можете удалять свои сообщения
Вы не можете голосовать в опросах
Вы не можете прикреплять файлы к сообщениям
Вы не можете скачивать файлы