Сегодня идет свободное скачивание без начисления Download

Добрый сынок / The Good Son (Джозеф Рубин) (Триллер, Драма 1993) WEB-DLRip

Ответить на тему
 
Автор
Сообщение

Omen ®

Стаж: 4 года 1 месяц

Сообщений: 194390

Торрент-статистика

Пост 11-Июл-2013 21:37

[Цитировать]

Добрый сынок
The Good Son
- Год выпуска: 1993
Производство: США
Жанр: Триллер, Драма
Описание фильма:
Генри Эванс — чудный и послушный мальчик. Генри обожает игры. В особенности милы его сердцу игры со смертельным исходом.
Ни его любящие родители, ни верная сестренка понятия не имеют, что за очаровательной, ангельской улыбкой Генри скрывается зловещая, дьявольская сущность. Лишенная жалости, сопереживания и жаждущая крови.
Единственным человеком, который распознал монстра в пай-мальчике, стал его двоюродный брат Марк, приехавший в дом Эвансов погостить. Но это открытие стало для Марка роковым: садиста-братика совсем не устраивало, что кто-то может знать о его тайных развлечениях.
И Генри приглашает Марка сыграть в одну из своих смертельных игр.
Режиссер: Джозеф Рубин
Актеры: Маколей Калкин, Элайджа Вуд, Венди Крюсон, Дэвид Морс, Дэниэл Хью Келли, Жаклин Брукс, Куинн Калкин, Эшли Кроу, Гай Штраусс, Кейт Брава, Марк Стефанич, Рори Калкин
Продолжительность: 01:26:48
Качество видео: WEB-DLRip
Перевод: Многоголосый закадровый, авторский одноголосый закадровый
Язык субтитров: Отсутствуют

Дата мировой премьеры: 24 сентября 1993
Дата выхода DVD релиза: 3 сентября 2009, «Двадцатый Век Фокс СНГ»
Видеокодек: Xvid
Битрейт видео: ~1797 kbps
Размер кадра: 720x400
Аудио #1 (RUS): AC3 2.0, 256 kbps (многоголосый)
Аудио #2 (RUS): AC3 2.0, 192 kbps (авторский, одноголосый, Ю. Живов)
Аудио #3 (ENG): AC3 2.0, 128 kbps (оригинал)

MediaInfo

Общее
Полное имя : E:\Торренты на раздачу\Добрый сынок\The_Good_Son.avi
Формат : AVI
Формат/Информация : Audio Video Interleave
Размер файла : 1,45 Гбайт
Продолжительность : 1 ч. 26 м.
Общий поток : 2393 Кбит/сек
Название фильма : The Good Son1993.WEB-DLRip
Программа кодирования : VirtualDubModRus 1.5.10.2 (build 2542/release)
Видео
Идентификатор : 0
Формат : MPEG-4 Visual
Профиль формата : Advanced [email protected]
Параметр BVOP формата : 1
Параметр QPel формата : Нет
Параметр GMC формата : Без точки перехода
Параметр матрицы формата : Default (MPEG)
Режим смешивания : Сжатый битовый поток
Идентификатор кодека : XVID
Идентификатор кодека/Подсказка : XviD
Продолжительность : 1 ч. 26 м.
Битрейт : 1798 Кбит/сек
Ширина : 720 пикселей
Высота : 400 пикселей
Соотношение сторон : 16:9
Частота кадров : 23,976 кадра/сек
Цветовое пространство : YUV
Субдискретизация насыщенности : 4:2:0
Битовая глубина : 8 бит
Тип развёртки : Прогрессивная
Метод сжатия : С потерями
Бит/(Пиксели*Кадры) : 0.260
Размер потока : 1,09 Гбайт (75%)
Библиотека кодирования : XviD 64
Аудио #1
Идентификатор : 1
Формат : AC-3
Формат/Информация : Audio Coding 3
Расширение режима : CM (complete main)
Параметр Endianness формата : Big
Идентификатор кодека : 2000
Продолжительность : 1 ч. 26 м.
Вид битрейта : Постоянный
Битрейт : 256 Кбит/сек
Каналы : 2 канала
Расположение каналов : Front: L R
Частота : 48,0 КГц
Битовая глубина : 16 бит
Метод сжатия : С потерями
Размер потока : 159 Мбайт (11%)
Выравнивание : Разделение по промежуткам
Продолжительность промежутка : 42 мс. (1,00 видеокадр)
Время предзагрузки промежутка : 500 мс.
Заголовок : Профессиональный (многоголосый закадровый)
Аудио #2
Идентификатор : 2
Формат : AC-3
Формат/Информация : Audio Coding 3
Расширение режима : CM (complete main)
Параметр Endianness формата : Big
Идентификатор кодека : 2000
Продолжительность : 1 ч. 26 м.
Вид битрейта : Постоянный
Битрейт : 192 Кбит/сек
Каналы : 2 канала
Расположение каналов : Front: L R
Частота : 48,0 КГц
Битовая глубина : 16 бит
Метод сжатия : С потерями
Размер потока : 119 Мбайт (8%)
Выравнивание : Разделение по промежуткам
Продолжительность промежутка : 42 мс. (1,00 видеокадр)
Время предзагрузки промежутка : 500 мс.
Заголовок : Авторский (Ю. Живов)
Аудио #3
Идентификатор : 3
Формат : AC-3
Формат/Информация : Audio Coding 3
Расширение режима : CM (complete main)
Параметр Endianness формата : Big
Идентификатор кодека : 2000
Продолжительность : 1 ч. 26 м.
Вид битрейта : Постоянный
Битрейт : 128 Кбит/сек
Каналы : 2 канала
Расположение каналов : Front: L R
Частота : 48,0 КГц
Битовая глубина : 16 бит
Метод сжатия : С потерями
Размер потока : 79,5 Мбайт (5%)
Выравнивание : Разделение по промежуткам
Продолжительность промежутка : 42 мс. (1,00 видеокадр)
Время предзагрузки промежутка : 500 мс.
Заголовок : Оригинал (Английский)
Скриншоты:
         
Вне форума [Профиль] [ЛС]
Показать сообщения:    
Ответить на тему

Текущее время: Сегодня 17:24

Часовой пояс: GMT + 3



Вы не можете начинать темы
Вы не можете отвечать на сообщения
Вы не можете редактировать свои сообщения
Вы не можете удалять свои сообщения
Вы не можете голосовать в опросах
Вы не можете прикреплять файлы к сообщениям
Вы не можете скачивать файлы